新萤火虫论坛

 找回密码
 注册
查看: 206|回复: 0

[Magnet][老去][Old.2021.1080p.WEBRip.DD5.1.x264-NOGRP][5.57 GB]

[复制链接]
发表于 2021-9-29 09:29:14 | 显示全部楼层 |阅读模式
每个链接仅出售5个 积分 ! 积分很容易获得,每回复一个帖子就能得到1个积分了哦!大家快去水区发发帖哈!



导演: M·奈特·沙马兰
编剧: M·奈特·沙马兰 / 皮埃尔·莱维 / Frederik Peeters
主演: 盖尔·加西亚·贝纳尔 / 薇姬·克里普斯 / 卢夫斯·塞维尔 / 亚历克斯·沃尔夫 / 托马辛·麦肯齐 / 阿比·丽 / 妮基·阿姆卡-伯德 / 肯·梁 / 伊莱扎·斯坎伦 / 亚伦·皮埃尔 / 艾伯丝·戴维兹 / 埃蒙·埃利奥特 / 亚历克莎·斯温顿 / 古斯塔夫·汉马斯顿 / 凯思琳·查尔方特 / 弗朗西斯卡·伊斯特伍德 / M·奈特·沙马兰 / 马修·希尔 / 杰弗里·霍尔斯曼 / 玛格·达·席尔瓦
类型: 剧情 / 悬疑 / 惊悚 / 恐怖
制片国家/地区: 美国
语言: 英语
上映日期: 2021-07-21(法国) / 2021-07-23(美国)
片长: 108分钟
又名: 诡老(台) / 归老(豆友译名)
IMDb: tt10954652

  这是一个完美的海滩假日,至少有一家人、一对年轻夫妇、几个游客和一个流亡者都这么认为,他们来到了同一个幽静、田园般的小海湾,那里有岩石池和沙滩,四周环绕着绿油油的、植被茂密的悬崖。但这个乌托邦背后隐藏着一个黑暗的秘密:首先是在水晶般清澈的水中有一具漂浮的女性尸体。还有一个诡异的事实正在上演:所有的孩子都在迅速衰老。很快,每个人都都发现他们正在变老——每半小时一次——而且他们似乎没有任何办法离开这个小海湾。
  沙马兰说这部电影是受到 Pierre Oscar Levy和艺术家Frederik Peeters创作的法国图画小说《沙堡》(Sandcastle)的启发。《沙堡》的故事里有13个人,他们无法离开一个神秘,僻静的海滩,那里隐藏着涉及时间的黑暗秘密。不过漫画里并没有给出这个时间谜团出现的原因,更像是一个关于生存与死亡预言故事。但《OLD》并不是直接改编自这部图像小说,所以沙马兰本人会来讲完这个故事和脑洞。

MediaInfo
Video
ID : 1
Format : AVC
Format/Info : Advanced Video Codec
Format profile : High@L4
Format settings : CABAC / 2 Ref Frames
Format settings, CABAC : Yes
Format settings, Reference frames : 2 frames
Codec ID : V_MPEG4/ISO/AVC
Duration : 1 h 48 min
Bit rate : 6 969 kb/s
Width : 1 920 pixels
Height : 1 080 pixels
Display aspect ratio : 16:9
Frame rate mode : Constant
Frame rate : 23.976 (24000/1001) FPS
Color space : YUV
Chroma subsampling : 4:2:0
Bit depth : 8 bits
Scan type : Progressive
Bits/(Pixel*Frame) : 0.140
Stream size : 5.28 GiB (95%)
Writing library : x264 core 155 r2901 7d0ff22
Language : English
Default : Yes
Forced : No
Color range : Limited
Color primaries : BT.709
Transfer characteristics : BT.709
Matrix coefficients : BT.709

Audio
ID : 2
Format : AC-3
Format/Info : Audio Coding 3
Commercial name : Dolby Digital
Codec ID : A_AC3
Duration : 1 h 48 min
Bit rate mode : Constant
Bit rate : 384 kb/s
Channel(s) : 6 channels
Channel layout : L R C LFE Ls Rs
Sampling rate : 48.0 kHz
Frame rate : 31.250 FPS (1536 SPF)
Compression mode : Lossy
Stream size : 298 MiB (5%)
Language : English
Service kind : Complete Main
Default : Yes
Forced : No

Text
ID : 3
Format : UTF-8
Codec ID : S_TEXT/UTF8
Codec ID/Info : UTF-8 Plain Text
Duration : 1 h 39 min
Bit rate : 53 b/s
Count of elements : 1418
Stream size : 39.3 KiB (0%)
Language : English
Default : Yes
Forced : No


购买主题 本主题需向作者支付 5 积分 才能浏览
您需要登录后才可以回帖 登录 | 注册

本版积分规则

小黑屋|Archiver|手机版|萤火虫

GMT++8, 2021-11-27 16:21 , Processed in 0.231474 second(s), 7 queries , File On.

Powered by Discuz! X3.4

Copyright © 2001-2021, Tencent Cloud.

快速回复 返回顶部 返回列表