新萤火虫论坛

 找回密码
 注册
查看: 239|回复: 2

[Mgt][X特遣队:全员集结][The.Suicide.Squad.2021.HDR.2160p.WEB.H265-TIMCUT][17.3G]

[复制链接]
发表于 2021-9-30 09:43:58 | 显示全部楼层 |阅读模式
每个链接仅出售5个 积分 ! 积分很容易获得,每回复一个帖子就能得到1个积分了哦!大家快去水区发发帖哈!



导演: 詹姆斯·古恩
编剧: 詹姆斯·古恩 / 约翰·奥斯特兰德
主演: 玛格特·罗比 / 伊德里斯·艾尔巴 / 约翰·塞纳 / 乔尔·金纳曼 / 西尔维斯特·史泰龙 / 维奥拉·戴维斯 / 大卫·达斯马齐连 / 迈克尔·鲁克 / 杰·科特尼 / 彼得·卡帕尔迪 / 艾莉丝·布拉加 / 皮特·戴维森 / 华金·科西奥 / 胡安·迭戈·博托 / 斯托姆·瑞德 / 内森·菲利安 / 塔伊加·维迪提 / 史蒂夫·阿吉 / 肖恩·古恩 / 弗卢拉·博格 / 约翰·奥斯特兰德 / 黄美玲 / 丹妮拉·曼希沃 / 史蒂芬·布莱克哈特 / 詹尼佛·霍兰德 / 迪·布拉雷·贝克尔 / 雷·埃尔南德斯 / 雷纳尔多·法伯勒 / 乔希·文图拉 / Gerardo Davila / 米凯拉·霍沃 / 林恩·阿什 / 安德里娅·安德拉德 / 兰德尔·P·海文斯 / 迈克尔·艾伦·米利甘 / 特伦斯·罗斯摩尔 / 娜塔莉·萨福兰 / 詹姆斯·威廉·巴拉德 / 蒂莫西·卡尔 / 玛丽索尔·科雷亚 / 约翰·盖蒂尔 / 麦克斯威尔·海史密斯 / 洛伊德·考夫曼 / 迪索·拉莫斯 / 弗雷迪·史卓玛 / 维多利亚·佩吉·沃特金斯
类型: 喜剧 / 动作 / 科幻 / 冒险
官方网站: https://www.thesuicidesquad.net
制片国家/地区: 美国 / 加拿大 / 英国
语言: 英语 / 西班牙语
上映日期: 2021-07-28(法国) / 2021-08-06(美国)
片长: 132分钟
又名: 新自杀小队 / 自杀特攻(港) / 自杀突击队集结(台) / 自杀小队2 / X特遣队2 / 自杀突击队2 / Suicide Squad 2
IMDb: tt6334354

剧情简介
  关押在美梦监狱的X特遣队成员获得一项可以减轻刑罚的新任务,前往南美洲的科托马耳他岛国,摧毁纳粹时期遗留的约顿海姆监狱和实验室,它当前用于关押该国的政治犯并施行人体实验。执行任务期间,X特遣队遭遇巨型外星生物海星斯塔罗,并与它发生冲突。

MediaInfo
Video
ID : 1
Format : HEVC
Format/Info : High Efficiency Video Coding
Format profile : Main 10@L5@Main
HDR format : SMPTE ST 2086, HDR10 compatible
Codec ID : V_MPEGH/ISO/HEVC
Duration : 2 h 12 min
Bit rate : 17.9 Mb/s
Width : 3 840 pixels
Height : 2 160 pixels
Display aspect ratio : 16:9
Frame rate mode : Constant
Frame rate : 23.976 (24000/1001) FPS
Color space : YUV
Chroma subsampling : 4:2:0
Bit depth : 10 bits
Bits/(Pixel*Frame) : 0.090
Stream size : 16.5 GiB (96%)
Writing library : x265 3.4hy:[Linux][GCC 7.5.0][64 bit] 10bit
Encoding settings : cpuid=1111039 / frame-threads=1 / wpp / no-pmode / no-pme / no-psnr / no-ssim / log-level=2 / input-csp=1 / input-res=3840x2160 / interlace=0 / total-frames=0 / level-idc=0 / high-tier=1 / uhd-bd=0 / ref=4 / no-allow-non-conformance / repeat-headers / annexb / no-aud / no-hrd / info / hash=0 / no-temporal-layers / no-open-gop / min-keyint=96 / keyint=96 / gop-lookahead=0 / bframes=3 / b-adapt=2 / b-pyramid / bframe-bias=0 / rc-lookahead=25 / lookahead-slices=4 / scenecut=40 / hist-scenecut=0 / radl=0 / no-splice / no-intra-refresh / ctu=64 / min-cu-size=8 / rect / no-amp / max-tu-size=32 / tu-inter-depth=1 / tu-intra-depth=1 / limit-tu=0 / rdoq-level=2 / dynamic-rd=0.00 / no-ssim-rd / signhide / no-tskip / nr-intra=0 / nr-inter=0 / no-constrained-intra / strong-intra-smoothing / max-merge=3 / limit-refs=3 / limit-modes / me=3 / subme=3 / merange=57 / temporal-mvp / no-frame-dup / no-hme / weightp / no-weightb / no-analyze-src-pics / deblock=0:0 / sao / no-sao-non-deblock / rd=4 / selective-sao=4 / no-early-skip / rskip / no-fast-intra / no-tskip-fast / no-cu-lossless / no-b-intra / no-splitrd-skip / rdpenalty=0 / psy-rd=2.00 / psy-rdoq=1.00 / no-rd-refine / no-lossless / cbqpoffs=0 / crqpoffs=0 / rc=abr / bitrate=18000 / qcomp=0.60 / qpstep=4 / stats-write=0 / stats-read=2 / cplxblur=20.0 / qblur=0.5 / vbv-maxrate=24500 / vbv-bufsize=24500 / vbv-init=0.6 / vbv-end=0.6 / vbv-end-fr-adj=0.0 / ipratio=1.40 / pbratio=1.30 / aq-mode=2 / aq-strength=1.00 / cutree / zone-count=0 / no-strict-cbr / qg-size=32 / no-rc-grain / qpmax=69 / qpmin=0 / no-const-vbv / sar=0 / overscan=0 / videoformat=5 / range=0 / colorprim=9 / transfer=16 / colormatrix=9 / chromaloc=0 / display-window=0 / master-display=G(13250,34500)B(7500,3000)R(34000,16000)WP(15635,16450)L(10000000,1) / cll=571,257 / min-luma=0 / max-luma=1023 / log2-max-poc-lsb=8 / vui-timing-info / vui-hrd-info / no-concatenation / slices=1 / no-opt-qp-pps / no-opt-ref-list-length-pps / no-multi-pass-opt-rps / scenecut-bias=0.05 / hist-threshold=0.01 / no-opt-cu-delta-qp / no-aq-motion / hdr10 / no-hdr10-opt / no-dhdr10-opt / no-idr-recovery-sei / analysis-reuse-level=0 / analysis-save-reuse-level=0 / analysis-load-reuse-level=0 / scale-factor=0 / refine-intra=0 / refine-inter=0 / refine-mv=1 / refine-ctu-distortion=0 / no-limit-sao / ctu-info=0 / no-lowpass-dct / refine-analysis-type=0 / copy-pic=1 / max-ausize-factor=1.0 / no-dynamic-refine / no-single-sei / no-hevc-aq / no-svt / no-field / qp-adaptation-range=1.00 / no-scenecut-aware-qpconformance-window-offsets / right=0 / bottom=0 / decoder-max-rate=0
Default : Yes
Forced : No
Color range : Limited
Color primaries : BT.2020
Transfer characteristics : PQ
Matrix coefficients : BT.2020 non-constant
Mastering display color primaries : Display P3
Mastering display luminance : min: 0.0001 cd/m2, max: 1000 cd/m2
Maximum Content Light Level : 571 cd/m2
Maximum Frame-Average Light Level : 257 cd/m2

Audio
ID : 2
Format : E-AC-3 JOC
Format/Info : Enhanced AC-3 with Joint Object Coding
Commercial name : Dolby Digital Plus with Dolby Atmos
Codec ID : A_EAC3
Duration : 2 h 12 min
Bit rate mode : Constant
Bit rate : 768 kb/s
Channel(s) : 6 channels
Channel layout : L R C LFE Ls Rs
Sampling rate : 48.0 kHz
Frame rate : 31.250 FPS (1536 SPF)
Compression mode : Lossy
Stream size : 726 MiB (4%)
Title : English
Language : English
Service kind : Complete Main
Default : Yes
Forced : No
Complexity index : 16
Number of dynamic objects : 15
Bed channel count : 1 channel
Bed channel configuration : LFE

Text #1
ID : 3
Format : UTF-8
Codec ID : S_TEXT/UTF8
Codec ID/Info : UTF-8 Plain Text
Duration : 2 h 11 min
Bit rate : 40 b/s
Count of elements : 1482
Stream size : 39.0 KiB (0%)
Title : English
Language : English
Default : No
Forced : No

Text #2
ID : 4
Format : UTF-8
Codec ID : S_TEXT/UTF8
Codec ID/Info : UTF-8 Plain Text
Duration : 2 h 11 min
Bit rate : 58 b/s
Count of elements : 2050
Stream size : 55.9 KiB (0%)
Title : English SDH
Language : English
Default : No
Forced : No


购买主题 本主题需向作者支付 5 积分 才能浏览
 楼主| 发表于 2021-10-1 13:31:37 | 显示全部楼层

那是的
回复 支持 反对

使用道具 举报

您需要登录后才可以回帖 登录 | 注册

本版积分规则

小黑屋|Archiver|手机版|萤火虫

GMT++8, 2021-11-27 16:22 , Processed in 0.235314 second(s), 7 queries , File On.

Powered by Discuz! X3.4

Copyright © 2001-2021, Tencent Cloud.

快速回复 返回顶部 返回列表