新萤火虫论坛

 找回密码
 注册
查看: 184|回复: 0

[算牌人][The.Card.Counter.2021.2160p.WEB-DL.x265.10bit.HDR.DDP5.1-NOGRP][11.71G]

[复制链接]
发表于 2021-10-1 14:50:28 | 显示全部楼层 |阅读模式
每个链接仅出售5个 积分 ! 积分很容易获得,每回复一个帖子就能得到1个积分了哦!大家快去水区发发帖哈!



导演: 保罗·施拉德
编剧: 保罗·施拉德
主演: 奥斯卡·伊萨克 / 蒂凡尼·哈迪斯 / 泰伊·谢里丹 / 威廉·达福 / 亚历山大·巴巴拉 / 鲍比·C·金 / 叶卡捷琳娜·贝克 / 布莱恩·特朗 / 迪伦·弗拉施纳 / 刘晨芝 / 乔尔·迈克利 / 比利·斯洛特 / 约翰·希亚拉彻
类型: 剧情 / 动作 / 惊悚
制片国家/地区: 英国 / 中国大陆 / 美国
语言: 英语
上映日期: 2021-09-02(威尼斯电影节) / 2021-09-10(美国)
片长: 109分钟
又名: 扑克神算师(港) / 算牌手(台) / 牌桌
IMDb: tt11196036

剧情简介 · · · · · ·
  泰尔素日只想玩牌,而奇克是一个脆弱易怒的年轻人,奇克正在寻求帮助,来执行他对军事上校(达福饰)的复仇计划。泰尔也在奇克身上看到了复仇的希望。得益于神秘的赌博金主拉·琳达(哈迪斯饰)的支持,泰尔带领奇克在赌场间辗转,直到三人的目光投向赢得在拉斯维加斯举行的世界扑克大赛。但事实证明,令奇克保持专注是行不通的,同时泰尔也被拖回了他过去的黑暗阴影中。

MediaInfo       
Video
ID : 1
Format : HEVC
Format/Info : High Efficiency Video Coding
Format profile : Main 10@L5@High
HDR format : SMPTE ST 2086, HDR10 compatible
Codec ID : V_MPEGH/ISO/HEVC
Duration : 1 h 51 min
Bit rate : 14.3 Mb/s
Width : 3 596 pixels
Height : 2 160 pixels
Display aspect ratio : 5:3
Frame rate mode : Constant
Frame rate : 23.976 FPS
Color space : YUV
Chroma subsampling : 4:2:0 (Type 2)
Bit depth : 10 bits
Bits/(Pixel*Frame) : 0.077
Stream size : 11.2 GiB (96%)
Default : Yes
Forced : No
Color range : Limited
Color primaries : BT.2020
Transfer characteristics : PQ
Matrix coefficients : BT.2020 non-constant
Mastering display color primaries : Display P3
Mastering display luminance : min: 0.0050 cd/m2, max: 1000 cd/m2
Maximum Content Light Level : 926 cd/m2
Maximum Frame-Average Light Level : 140 cd/m2

Audio
ID : 2
Format : E-AC-3
Format/Info : Enhanced AC-3
Commercial name : Dolby Digital Plus
Codec ID : A_EAC3
Duration : 1 h 51 min
Bit rate mode : Constant
Bit rate : 640 kb/s
Channel(s) : 6 channels
Channel layout : L R C LFE Ls Rs
Sampling rate : 48.0 kHz
Frame rate : 31.250 FPS (1536 SPF)
Compression mode : Lossy
Stream size : 512 MiB (4%)
Language : English
Service kind : Complete Main
Default : Yes
Forced : No

Text #1
ID : 3
Format : UTF-8
Codec ID : S_TEXT/UTF8
Codec ID/Info : UTF-8 Plain Text
Duration : 1 h 42 min
Bit rate : 48 b/s
Count of elements : 1351
Stream size : 36.2 KiB (0%)
Language : English
Default : Yes
Forced : No

Text #2
ID : 4
Format : UTF-8
Codec ID : S_TEXT/UTF8
Codec ID/Info : UTF-8 Plain Text
Duration : 1 h 50 min
Bit rate : 54 b/s
Count of elements : 1655
Stream size : 43.8 KiB (0%)
Title : SDH
Language : English
Default : No
Forced : No


购买主题 本主题需向作者支付 5 积分 才能浏览
您需要登录后才可以回帖 登录 | 注册

本版积分规则

小黑屋|Archiver|手机版|萤火虫

GMT++8, 2021-11-27 16:37 , Processed in 0.237223 second(s), 7 queries , File On.

Powered by Discuz! X3.4

Copyright © 2001-2021, Tencent Cloud.

快速回复 返回顶部 返回列表