新萤火虫论坛

 找回密码
 注册
查看: 206|回复: 0

[Magnet][悬崖之上.Impasse.2021.CHINESE.1080p.BluRay.x264.DD5.1-iKiW][12.33G]

[复制链接]
发表于 2021-10-3 16:55:23 | 显示全部楼层 |阅读模式
每个链接仅出售5个积分!积分很容易获得,每回复一个帖子就能得到1个积分了哦!大家快去水区发发帖哈!



导演: 张艺谋
编剧: 全勇先 / 张艺谋
主演: 张译 / 于和伟 / 秦海璐 / 朱亚文 / 刘浩存 / 倪大红 / 李乃文 / 余皑磊 / 飞凡 / 雷佳音 / 沙溢 / 韩昊霖 / 赵毅
类型: 剧情 / 动作 / 悬疑
制片国家/地区: 中国大陆 / 中国香港
语言: 汉语普通话 / 英语 / 俄语
上映日期: 2021-04-30(中国大陆)
片长: 120分钟
又名: Impasse / Cliff Walkers
IMDb: tt11448076

剧情简介 · · · · · ·
  上世纪三十年代,四位曾在苏联接受特训的***特工组成任务小队,回国执行代号为“乌特拉”的秘密行动。由于叛徒的出卖,他们从跳伞降落的第一刻起, 就已置身于敌人布下的罗网之中。同志能否脱身,任务能否完成,雪一直下,立于“悬崖之上”的行动小组面临严峻考验。

MediaInfo
Video
ID : 1
Format : AVC
Format/Info : Advanced Video Codec
Format profile : High@L4.1
Format settings : CABAC / 5 Ref Frames
Format settings, CABAC : Yes
Format settings, Reference frames : 5 frames
Codec ID : V_MPEG4/ISO/AVC
Duration : 2 h 0 min
Bit rate : 14.0 Mb/s
Width : 1 920 pixels
Height : 808 pixels
Display aspect ratio : 2.40:1
Frame rate mode : Constant
Frame rate : 24.000 FPS
Color space : YUV
Chroma subsampling : 4:2:0
Bit depth : 8 bits
Scan type : Progressive
Bits/(Pixel*Frame) : 0.376
Stream size : 11.7 GiB (95%)
Writing library : x264 core 133 r2334 a3ac64b
Encoding settings : cabac=1 / ref=5 / deblock=1:-3:-3 / analyse=0x3:0x113 / me=umh / subme=11 / psy=1 / psy_rd=1.00:0.00 / mixed_ref=1 / me_range=64 / chroma_me=1 / trellis=2 / 8x8dct=1 / cqm=0 / deadzone=21,11 / fast_pskip=0 / chroma_qp_offset=-4 / threads=36 / lookahead_threads=6 / sliced_threads=0 / nr=0 / decimate=0 / interlaced=0 / bluray_compat=0 / constrained_intra=0 / bframes=10 / b_pyramid=2 / b_adapt=2 / b_bias=0 / direct=3 / weightb=1 / open_gop=0 / weightp=2 / keyint=250 / keyint_min=24 / scenecut=40 / intra_refresh=0 / rc=2pass / mbtree=0 / bitrate=14000 / ratetol=1.0 / qcomp=0.60 / qpmin=0 / qpmax=69 / qpstep=4 / cplxblur=20.0 / qblur=0.5 / ip_ratio=1.40 / pb_ratio=1.30 / aq=1:0.80
Language : English
Default : Yes
Forced : No

Audio
ID : 2
Format : AC-3
Format/Info : Audio Coding 3
Commercial name : Dolby Digital
Format settings : Dolby Surround EX
Codec ID : A_AC3
Duration : 2 h 0 min
Bit rate mode : Constant
Bit rate : 640 kb/s
Channel(s) : 6 channels
Channel layout : L R C LFE Ls Rs
Sampling rate : 48.0 kHz
Frame rate : 31.250 FPS (1536 SPF)
Compression mode : Lossy
Stream size : 551 MiB (4%)
Title : 公映国语
Language : Chinese
Service kind : Complete Main
Default : Yes
Forced : No

Text
ID : 3
Format : UTF-8
Codec ID : S_TEXT/UTF8
Codec ID/Info : UTF-8 Plain Text
Duration : 1 h 51 min
Bit rate : 22 b/s
Count of elements : 988
Stream size : 18.8 KiB (0%)
Language : English
Default : No
Forced : No


购买主题 本主题需向作者支付 5 积分 才能浏览
您需要登录后才可以回帖 登录 | 注册

本版积分规则

小黑屋|Archiver|手机版|萤火虫

GMT++8, 2021-11-27 16:43 , Processed in 0.193045 second(s), 7 queries , File On.

Powered by Discuz! X3.4

Copyright © 2001-2021, Tencent Cloud.

快速回复 返回顶部 返回列表